#TITLE:Bassline;
#SUBTITLE:;
#ARTIST:Quarashi;
#TITLETRANSLIT:;
#SUBTITLETRANSLIT:;
#ARTISTTRANSLIT:;
#CREDIT:;
#BANNER:;
#BACKGROUND:;
#LYRICSPATH:;
#CDTITLE:;
#MUSIC:Bassline.mp3;
#MUSICLENGTH:104.385;
#OFFSET:-0.040;
#SAMPLESTART:73.425;
#SAMPLELENGTH:12.000;
#SELECTABLE:YES;
#BPMS:0.000=98.000;
#STOPS:;
#BGCHANGES:;
#FIRSTBEAT:8.000;

#LASTBEAT:169.500;

#SONGFILENAME:Songs/EXTRA/Bassline/Bassline.sm;

#HASMUSIC:1;

#HASBANNER:0;


//---------------dance-single - MANIAC----------------
#NOTES:
     dance-single:
     MANIAC:
     hard:
     6:
     0.350,0.507,0.172,0.211,0.067,216.000,18.000,22.000,0.000,0.000:  // measure 1
0000
0000
0000
0000
,  // measure 2
0000
0000
0000
0000
,  // measure 3
2000
0000
3020
0000
,  // measure 4
0230
0000
0302
2003
,  // measure 5
3002
0000
0203
0000
,  // measure 6
0320
0000
2030
3200
,  // measure 7
1300
0100
0010
0001
,  // measure 8
0001
0000
1000
0000
0010
1000
0010
0010
,  // measure 9
0010
1000
0100
1000
,  // measure 10
0001
0000
0001
0000
0001
1000
0001
1000
,  // measure 11
0000
0100
0010
0100
,  // measure 12
0000
0000
0010
0000
0100
0000
0010
0001
,  // measure 13
1000
0100
0010
0001
,  // measure 14
1000
0100
1000
0000
0010
0010
0010
0000
,  // measure 15
0100
0001
0001
1000
,  // measure 16
0100
0020
0000
0000
,  // measure 17
0031
1000
0010
0010
,  // measure 18
0100
0001
0001
0000
0100
1000
1000
1000
,  // measure 19
1000
0100
0010
0000
0100
0010
0000
0000
,  // measure 20
0001
1000
0010
0000
0001
1000
0010
0000
,  // measure 21
0000
0100
0010
0000
0100
0010
0000
0001
,  // measure 22
1000
0000
0100
0010
0000
0001
0010
0000
,  // measure 23
0100
0010
0100
0000
1000
0001
0000
0100
,  // measure 24
0010
0000
1000
0000
0010
0000
0100
0001
,  // measure 25
0000
0001
1000
0000
0010
1000
0000
0100
,  // measure 26
0010
0001
1000
0001
,  // measure 27
2000
0000
3200
0000
,  // measure 28
0320
0000
0032
0203
,  // measure 29
2300
0000
3200
0000
,  // measure 30
0320
0000
0032
0023
,  // measure 31
1030
0100
1000
0000
1100
0000
0100
0000
0010
0001
0010
0000
0011
0000
0010
0000
,  // measure 32
0100
0010
0100
0000
0110
0000
0100
0000
0001
0100
0001
0000
0101
0000
0100
0000
,  // measure 33
1000
0100
1000
0000
1100
0000
0100
0000
0100
0010
0100
0000
0110
0000
0010
0000
,  // measure 34
0010
0001
0010
0000
0011
0000
0010
0000
0110
0000
0100
0000
1100
0000
1000
0000
,  // measure 35
1000
0100
1000
0000
1100
0000
0100
0000
0010
0001
0010
0000
0011
0000
0010
0000
,  // measure 36
0100
0010
0100
0000
0110
0000
0100
0000
0001
0100
0001
0000
0101
0000
0100
0000
,  // measure 37
1000
0100
1000
0000
1100
0000
0100
0000
0100
0010
0100
0000
0110
0000
0010
0000
,  // measure 38
0010
0001
0010
0000
0011
0000
0010
0000
0110
0000
0100
0000
1100
0000
1000
0000
,  // measure 39
1000
0100
0010
0000
0100
1000
0000
0100
,  // measure 40
0000
0010
0000
0100
0010
0001
0010
0010
,  // measure 41
0000
0100
0000
1000
0000
0010
0100
0001
,  // measure 42
1000
0000
0100
0000
0010
0100
0010
0200
,  // measure 43
0000
0000
0000
0300
0000
0000
0000
0000
;

//---------------dance-single - ANOTHER----------------
#NOTES:
     dance-single:
     ANOTHER:
     medium:
     4:
     0.182,0.202,0.010,0.067,0.000,125.000,1.000,7.000,0.000,0.000:  // measure 1
0000
0000
0000
0000
,  // measure 2
0000
0000
0000
0000
,  // measure 3
0020
0000
2000
0000
,  // measure 4
0000
0000
0000
0000
3000
0030
0001
0000
,  // measure 5
0020
0000
2000
0000
,  // measure 6
0000
0000
0000
0000
0000
3030
0001
0000
,  // measure 7
0100
0010
0100
1000
,  // measure 8
0001
0100
0001
0010
,  // measure 9
0001
0000
0001
0000
,  // measure 10
1000
0100
1000
0010
,  // measure 11
0010
0000
0001
0000
,  // measure 12
0100
0000
0001
1000
,  // measure 13
1000
0000
0010
0100
,  // measure 14
0001
1000
0010
0010
,  // measure 15
0100
0000
0000
0000
,  // measure 16
0000
0000
0000
0000
,  // measure 17
0110
0001
1000
1000
,  // measure 18
0001
0100
0010
0010
,  // measure 19
1000
0100
1000
0000
0001
0010
0000
0000
,  // measure 20
0100
1000
0001
0010
,  // measure 21
0100
0010
0100
0000
0001
0010
0000
0000
,  // measure 22
0001
1000
0001
1000
,  // measure 23
0010
0100
0001
1000
,  // measure 24
0100
0010
0001
1000
,  // measure 25
0010
1000
0001
0001
,  // measure 26
1000
0000
1000
0000
0100
0000
0100
0100
,  // measure 27
0020
0000
0000
0000
,  // measure 28
0000
0000
0001
0001
,  // measure 29
0032
0000
0000
0000
,  // measure 30
1000
0000
1000
0100
,  // measure 31
0103
0010
1000
0001
,  // measure 32
0100
0010
1000
0001
,  // measure 33
0001
1000
0010
0100
,  // measure 34
0100
1000
0001
0010
,  // measure 35
0100
1000
0001
0001
,  // measure 36
1000
0010
1000
1000
,  // measure 37
0100
1000
0001
0010
,  // measure 38
0100
1000
0001
1000
,  // measure 39
0001
0010
0000
0000
0000
0000
0000
0000
,  // measure 40
1000
0010
0000
0000
0000
0000
0000
0000
,  // measure 41
1000
0100
0000
0000
0000
0000
0000
0000
,  // measure 42
0001
0100
0000
0000
0000
0000
0010
0200
,  // measure 43
0000
0300
0000
0000
;

//---------------dance-single - BASIC----------------
#NOTES:
     dance-single:
     BASIC:
     easy:
     2:
     0.130,0.181,0.000,0.029,0.000,92.000,0.000,3.000,0.000,0.000:  // measure 1
0000
0000
0000
0000
,  // measure 2
0000
0000
0000
0000
,  // measure 3
0001
0000
0100
0000
,  // measure 4
0010
0000
1000
0100
,  // measure 5
0001
0000
1000
0000
,  // measure 6
0010
0000
0100
0100
,  // measure 7
0100
0000
0000
0000
,  // measure 8
0001
0000
0000
0000
,  // measure 9
0001
0000
0000
0000
,  // measure 10
0010
0000
0000
0000
,  // measure 11
1000
0000
0000
0000
,  // measure 12
0100
0000
0000
0000
,  // measure 13
0010
0000
0000
0000
,  // measure 14
1000
0000
0000
0000
,  // measure 15
0002
0000
0000
0000
,  // measure 16
0000
0000
0000
0000
,  // measure 17
0013
1000
0000
0000
,  // measure 18
0010
0001
0000
0000
,  // measure 19
0100
1000
0100
0001
,  // measure 20
0100
1000
0100
0001
,  // measure 21
0100
1000
0010
0001
,  // measure 22
2000
0000
0000
3001
,  // measure 23
0100
0010
0100
1000
,  // measure 24
0100
0010
0100
0001
,  // measure 25
0100
1000
0001
1000
,  // measure 26
0200
0000
0000
0000
,  // measure 27
0310
0000
1000
0000
,  // measure 28
0001
0000
0010
0100
,  // measure 29
1000
0000
0001
0000
,  // measure 30
0100
0000
0001
0010
,  // measure 31
1000
0010
0001
0100
,  // measure 32
1000
0100
1000
0001
,  // measure 33
0010
0100
1000
0001
,  // measure 34
0100
0010
1000
0100
,  // measure 35
0100
0000
0000
0001
,  // measure 36
0001
0000
0000
1000
,  // measure 37
0010
0000
0000
0100
,  // measure 38
1000
0000
0000
0010
,  // measure 39
0100
0000
0000
0001
,  // measure 40
0001
0000
0000
1000
,  // measure 41
0010
0000
0000
0001
,  // measure 42
0010
0000
0000
0000
,  // measure 43
0100
0000
0000
0000
;
